Skip to main content

The Moondoggies Live at Majestic Theatre on 2010-11-12




01. intro
02. It's a Shame, It's a Pity - Tidelands
03. What Took So Long
04. Black Shoe
05. Fly Mama Fly
06. Bogachiel Rain Blues
07. Save My Soul -> Changing
08. (a little waiting tune)
09. Down The Well
10. Come On Baby Let's Go Downtown (Neil Young)


Collection TheMoondoggies
Band/Artist The Moondoggies
Venue Majestic Theatre
Location Madison WI

Source SBD + AUD
Lineage WAV > FLAC
Taped by morst
Transferred by morst & digitalist0ne

Notes

Moondoggies & The Romany Rye opened for Dawes

HD Videos by morst, with good audio from this version:




Save My Soul - Changing
video at H264 (35 MB)
P2630648-AudioFixed_000027.jpg
Save My Soul - Changing
video in HD (509 MB)
P2630648-AudioFixed.gif

Dawes set here: http://www.archive.org/details/Dawes2010-11-12

SHNTOOL:
length expanded size cdr WAVE problems fmt ratio filename
0:37.399 10770944 B cxx -- ---xx flac 0.6454 Moondoggies2010-11-12t01.flac
5:57.710 103020530 B cxx -- ---xx flac 0.7081 Moondoggies2010-11-12t02.flac
5:51.510 101234864 B cxx -- ---xx flac 0.7359 Moondoggies2010-11-12t03.flac
4:11.518 72437336 B cxx -- ---xx flac 0.6884 Moondoggies2010-11-12t04.flac
5:55.323 102333140 B cxx -- ---xx flac 0.6782 Moondoggies2010-11-12t05.flac
4:31.024 78054968 B cxx -- ---xx flac 0.7411 Moondoggies2010-11-12t06.flac
5:48.144 100265462 B cxx -- ---xx flac 0.7344 Moondoggies2010-11-12t07.flac
1:30.045 25932938 B cxx -- ---xx flac 0.7308 Moondoggies2010-11-12t08.flac
5:54.104 101982008 B cxx -- ---xx flac 0.7330 Moondoggies2010-11-12t09.flac
3:42.757 64154114 B cxx -- ---xx flac 0.7334 Moondoggies2010-11-12t10.flac
43:59.534 760186304 B 0.7181 (10 files)

-~-~-~-~-~-~-~-~-~-~-~-~-~-~-~-~-~-~-~-~-~-~-~-~-~-
The Soundscape Preservation Society (Founded 1991)
http://www.iamtypingwithonefinger.com/SPS.html
-~-~-~-~-~-~-~-~-~-~-~-~-~-~-~-~-~-~-~-~-~-~-~-~-~-

Reviews

There are no reviews yet. Be the first one to write a review.
PEOPLE ALSO FOUND
The Moondoggies
by The Moondoggies
585
1
0
Source: SBD + AUD mix
The Moondoggies
by The Moondoggies
314
1
0
Source: SBD > XLR adapter > RCA > iRiver h120 (Line-in @ 16bit 44.1kHz WAV)
The Moondoggies
by The Moondoggies
1,306
1
0
Source: SBD + AUD
Dead Rock West
by Dead Rock West
166
1
0
Source: AT853 > AT8531 > Edirol R-09
Cracker
by Cracker
246
1
0
Source: DAUD @48kHz, 24 bit
The Kind
by The Kind
3,210
0
1
( 1 reviews )
Source: Sony ECM-909 > D6 > CAS
Mojo Radio
by Mojo Radio
178
1
0
Source: Zoom H2 handy recorder, Built-in mics @ 90degrees > WAV @24bit/48kHz
ted quinn
259
1
0
Source: DAUD
Flame Shark
by Flame Shark
1,083
1
0
Source: KM140's > MV100 > PCM-M1
Community Audio
by Vladimir Noskov
11
1
0